#TITLE:MonStAR;
#SUBTITLE:;
#ARTIST:平野 绫(Hirano Aya);
#TITLETRANSLIT:;
#SUBTITLETRANSLIT:;
#ARTISTTRANSLIT:;
#CREDIT:;
#BANNER:MonStar_logo.jpg;
#BACKGROUND:MonStar_bg.jpg;
#LYRICSPATH:;
#CDTITLE:Lan.png;
#MUSIC:MonStAR.mp3;
#OFFSET:-0.020;
#SAMPLESTART:100.000;
#SAMPLELENGTH:12.000;
#SELECTABLE:YES;
#BPMS:0.000=148.010;
#STOPS:;
#BGCHANGES:;
// cache tags:
#FIRSTBEAT:4.000;
#LASTBEAT:292.000;
#SONGFILENAME:Songs/Super Dancer Online/MonStAR/MonStAR.sm;
#HASMUSIC:1;
#HASBANNER:1;
#MUSICLENGTH:123.001;
// end cache tags

//---------------dance-single - sky----------------
#NOTES:
     dance-single:
     sky:
     Medium:
     8:
     0.784,0.712,0.854,0.016,0.167,561.000,105.000,2.000,0.000,7.000:

0000
0000
0000
0000
,
1000
0100
0010
0001
0010
0001
0000
0000
,
0001
0010
0100
1000
0100
1000
0000
0000
,
0010
0100
0010
0001
0100
0001
0000
1000
,
0001
0000
0000
0000
,
0001
0010
0100
0010
0100
0001
0000
0000
,
1000
0100
0010
0100
1000
0100
0000
0000
,
0010
0100
0001
0010
0100
0010
0100
1000
,
0000
0000
0000
0000
0000
1001
0001
0000
,
1000
0000
0001
0000
0100
0000
0001
1000
0100
0000
0010
0000
0100
0000
0010
0000
,
1000
0000
0001
0000
0100
0000
0001
1000
0100
1000
0100
0000
0001
0000
0010
0000
,
1000
0000
0100
0000
0010
0000
0100
0001
0010
0000
1000
0000
0100
0000
0010
0000
,
0001
0000
0100
0000
1000
0000
0001
0100
0010
0100
0001
0000
0010
0000
0100
0000
,
1000
0000
0100
0000
0001
0000
0100
0010
0100
0000
1000
0000
0100
0000
0010
0000
,
1000
0000
0001
0000
0100
0000
0001
0010
1000
0010
0100
0000
0010
0000
0100
0000
,
0001
0000
1000
0000
0100
0000
0010
1000
0001
0000
1000
0000
0010
0000
1000
0000
,
0100
0010
0001
0100
1000
0001
0010
0100
,
1001
0010
1100
0010
1010
0100
1100
0001
,
0110
0001
1001
0010
0101
1000
0011
1000
,
0001
0100
1001
0100
0001
0010
0101
0010
,
0100
1000
1010
0001
0010
0100
1000
0100
,
0010
0010
1010
0001
0010
1000
0110
0010
,
0100
0001
1001
0010
0100
1000
0011
0100
,
0010
0001
0110
0000
0100
1000
0101
0000
,
0001
1000
1000
0001
0100
0001
1100
0010
,
0101
0001
0011
0000
1001
0100
1010
0000
,
0001
0010
0100
0011
0100
1000
0110
0010
,
0100
0010
1100
0010
0001
1000
0011
0010
,
0100
0010
1001
0100
0010
0001
1010
0100
,
0011
0010
0110
0000
0101
0100
1100
0000
,
1010
0001
0101
0000
1010
1000
0101
0010
,
0100
0100
1001
0010
1000
0100
1010
0011
,
0000
1010
0010
1001
1011
0000
1110
0000
,
1101
0001
0100
0010
1001
0100
0010
0100
,
1010
0010
0001
0100
0010
0001
0010
1000
,
0011
0100
0010
1000
0101
0010
1000
0100
,
1010
0000
0100
0000
0010
0000
0001
0000
1010
0000
0001
0000
0010
0100
0010
0100
,
0011
1000
0101
0100
1000
0010
1000
0100
,
1001
0010
0100
1000
0011
1000
0101
0000
,
1110
0111
1011
1101
,
2002
0000
0000
0000
0000
0000
0000
0000
0000
0000
0000
0000
0000
0000
0000
3003
,
0110
0000
0011
0000
1000
0100
0011
0000
,
1000
0110
1000
0010
0001
0010
0100
1000
,
0001
0100
0011
0000
1000
0010
1100
0000
,
1010
0000
0001
0000
0010
0000
0100
0000
1000
0100
0001
0000
0010
0000
0001
0000
,
1000
0000
1000
0000
0001
0010
0001
0000
0010
0000
0100
0000
1000
0000
0010
0000
,
0001
1000
1010
0010
1000
0100
0010
0001
,
0010
0100
0110
0010
1000
0010
0101
1000
,
0001
0000
0100
0000
0010
0000
0100
0000
0010
0000
1000
0000
0001
0010
0100
0010
,
1000
0010
1100
0010
0100
0001
0110
1000
,
0010
0000
0001
0000
1010
0000
0100
0000
0001
0010
1000
0000
0110
0000
1000
0000
,
0011
0000
0101
0000
1001
0010
0110
0000
,
0010
0000
0100
0000
1010
0000
0100
0000
0010
0001
0100
0000
0010
0000
0001
0000
,
1000
0100
1010
0010
0011
0100
0010
0100
,
1001
0000
0010
0000
0100
0000
1000
0000
0100
0010
0100
0000
0011
0000
0000
0000
,
1100
0000
0001
0000
1010
0000
0000
0010
0100
0000
0010
0000
0101
0000
0001
0000
,
0010
0000
0100
0000
0100
0000
0010
0000
1000
0100
0010
0001
0001
0010
0100
1000
,
0010
0100
0011
0000
0100
0010
1010
0000
,
0001
0000
0100
0000
0010
0000
0001
0000
1000
0100
1000
0000
0001
0000
0010
0000
,
0001
0010
1100
0001
1000
0100
0011
1000
,
0010
0000
0100
0000
0010
0000
0001
0000
0010
0100
1000
0000
0001
0010
0100
0010
,
0001
1000
0101
0010
0010
0001
1100
1000
,
0001
0000
0100
0000
0110
0000
0001
0000
0010
1000
0100
0000
0001
0000
0010
0000
,
0001
0000
0100
0000
0011
0000
0000
0100
0001
0000
0010
0000
1000
0000
0100
0000
,
0001
0000
0010
0000
0100
0000
1000
0000
1000
0100
1000
0001
0010
0100
1000
0000
,
1000
0100
0110
0001
0100
0010
0110
1000
,
0010
0000
0100
0000
0011
0000
0001
0000
1000
0100
1000
0000
0010
0000
0100
0000
,
0001
0100
0011
1000
0010
0001
0110
0001
,
0100
0000
0010
0000
1000
0000
0100
0001
0010
0000
0001
0000
1000
0100
1000
0001
,
0010
0001
1100
0010
0100
1000
0110
0001
,
0010
0000
0100
0000
0011
0000
1000
0001
0100
0001
1000
0000
0010
0000
0100
0000
,
0010
0100
0011
1000
0001
0010
1100
0010
,
1000
0000
0100
0000
0010
0000
0001
0000
0010
0100
0010
0100
1000
0000
0001
0000
,
1000
0000
0000
0000
;
